Видеоредактор

KiLlArMy_Juni

♥Trance♥|Beta Tester
В каком видеоредакторе есть возможность поменять местами высоту и ширину видео?
Есть видео с размером 352 x 576, а нужно чтоб было 576х352. Как поменять местами?
Посоветовали Adobe Premiere Pro но там требования слишком для моего компа(удалось установить Sony Vegas PRO 10.0 там послабше требования но не могу найти где это делается(
 

KiLlArMy_Juni

♥Trance♥|Beta Tester
да дело в том что записал маминой подруге фильм старенький 73 года на флешку,а он какраз почему-то идет с размером 352 x 576 и у нее на телике показывает картинку посередине вытянутую кверху и зауженную по краям..тупо прямоугольник сверху вниз посередине экрана и никак картинка не растягивается (автоматом не подстраивается картинка под экран телика.у себя проверял все ок но я смотрю через медиаплеер ,а у нее юсб прям в телик вставляется
 
Last edited by a moderator:

vvgNovanet

Moderator
Moderator
Смотри в настройках телевизора. Либо телевизор просто данный формат криво поддерживает.
Глянь по паспорту какие форматы в каком разрешении.
1 ) Пережми в конверторе под поддерживаемый формат. ( я сейчас пользуюсь - XviD4PSP 6.0 )
2 ) Найди этот фильм в другом месте с другими параметрами.

Давай название фильма тоже поищу. :)


http://www.winnydows.com/#Downloads?XviD4PSP 6

там точно можно выставить любое разрешение
 
Last edited by a moderator:

KiLlArMy_Juni

♥Trance♥|Beta Tester
спасибо большое за помощь)фильм был Бело Платье 73 года (Египет) с продолжением)вот нашел единственное подходящее но там расширение .VOB были и .avi но без продолжения зато с норм разрешением картинки..да это 100% ее телик не правильно отображает размеры*не дождавшись ответа записал на болванку этот файл без изменений (Beloe_Platie_1.VOB) и на бытовом двд lg запустил ей без проблем*
прожку скачал буду пробовать изменить размер так как она захотела еще и на флешке иметь этот фильм на память так сказать)
---
попробовал сменить но на это слишком много уйдет время с моим слабеньким компом(5,6,7 часов и время продолжало рости (
 
Last edited by a moderator:

vvgNovanet

Moderator
Moderator
Вот эта раздача ??
http://rutracker.org/forum/viewtopic.php?t=250492

Я понял, что существует продолжение фильма Белое платье - 2 / Сумасшедшая любовь ??
Ты про него говоришь ??

Первый фильм я нашёл в AVI - http://yadi.sk/d/AlQ0danqM3vaQ
Code:
Качество: VHSRip
Видео: XviD, 1998 Кбит/с, 512х384
Аудио: АС3, 2 ch, 128 Кбит/с 
Размер: 1.37 ГБ 
Продолжительность: 01:32:02
Перевод: Дублированный
Второй тоже в AVI ( продолжение ) - http://yadi.sk/d/i_165mjQM5Ukv
Code:
Качество: VHSRip
Видео: DivX, 952 Кбит/с, 656x478
Аудио: MP3, 2 ch, 128 Кбит/с
Размер: 708 МБ
Продолжительность: 01:41:07
Перевод: Профессиональный двухголосый
 
Last edited by a moderator:

vvgNovanet

Moderator
Moderator
Есть видео с размером 352 x 576, а нужно чтоб было 576х352. Как поменять местами?
Поменял, и перекодировал в AVI ))
Code:
Полное имя                               : B:\Beloe_platie\Beloe_Platie.avi
Формат                                   : AVI
Формат/Информация                        : Audio Video Interleave
Профиль формата                          : OpenDML
Размер файла                             : 2,11 Гбайт
Продолжительность                        : 3 ч. 13 м.
Общий поток                              : 1564 Кбит/сек
Программа кодирования                    : XviD4PSP 6.0 / 53.6.0


Видео:
Идентификатор                            : 0
Формат                                   : MPEG-4 Visual
Профиль формата                          : Advanced Simple@L5
Параметр BVOP формата                    : 2
Параметр QPel формата                    : Нет
Параметр GMC формата                     : 3 точки перехода
Параметр матрицы формата                 : Default (H.263)
Идентификатор кодека                     : XVID
Идентификатор кодека/Подсказка           : XviD
Продолжительность                        : 3 ч. 13 м.
Битрейт                                  : 1424 Кбит/сек
Ширина                                   : 576 пикселей
Высота                                   : 352 пикселя
Соотношение сторон                       : 4:3
Частота кадров                           : 25,000 кадров/сек
Цветовое пространство                    : YUV
Субдискретизация насыщенности            : 4:2:0
Битовая глубина                          : 8 бит
Тип развёртки                            : Чересстрочная
Порядок развёртки                        : Нижнее поле первое
Метод сжатия                             : С потерями
Бит/(Пиксели*Кадры)                      : 0.281
Размер потока                            : 1,92 Гбайт (91%)
Библиотека кодирования                   : XviD 64

Звук:
Идентификатор                            : 1
Формат                                   : MPEG Audio
Версия формата                           : Version 1
Профиль формата                          : Layer 3
Режим                                    : Joint stereo
Расширение режима                        : MS Stereo
Идентификатор кодека                     : 55
Идентификатор кодека/Подсказка           : MP3
Продолжительность                        : 3 ч. 13 м.
Вид битрейта                             : Постоянный
Битрейт                                  : 128 Кбит/сек
Каналы                                   : 2 канала
Частота                                  : 48,0 КГц
Метод сжатия                             : С потерями
Размер потока                            : 177 Мбайт (8%)
Выравнивание                             : Соединение по промежуткам
Продолжительность промежутка             : 24  мс. (0,60 видеокадр)
Библиотека кодирования                   : LAME
Держи - http://yadi.sk/d/M58hHkEbM9GoF
2 в 1
 
Last edited by a moderator:
Top